Home :: Artists :: About :: FAQ :: Forums :: Links :: Shop :: Contact

Go Back   hybridized.org Forums > Set Discussion > Digital Witchcraft

Reply
 
Thread Tools Display Modes
  #1  
Old 02-09-2004, 09:29 PM
andy's Avatar
andy andy is offline
Site Admin
 
Join Date: Feb 2003
Location: Pittsburgh, PA
Posts: 1,269
andy has disabled reputation
Default Rhythmaculture (2003-04-12)

For more info about this set, click here.
Reply With Quote
  #2  
Old 02-11-2004, 08:48 AM
Anonymous Anonymous is offline
Senior Member
 
Join Date: Feb 2003
Posts: 255
Anonymous
Default

Wow, what a great set. Love the floaty ambience at the start

Anyone know where the track breaks are?
Reply With Quote
  #3  
Old 02-13-2004, 07:30 PM
Anonymous Anonymous is offline
Senior Member
 
Join Date: Feb 2003
Posts: 255
Anonymous
Default

Link is broken. Hope you may fix it
Reply With Quote
  #4  
Old 02-13-2004, 09:36 PM
andy's Avatar
andy andy is offline
Site Admin
 
Join Date: Feb 2003
Location: Pittsburgh, PA
Posts: 1,269
andy has disabled reputation
Default

My second server is down right now but the link isn't broken... you'll get the download from the primary server (url with port 81).
Reply With Quote
  #5  
Old 02-14-2004, 11:15 AM
iamcreator.com's Avatar
iamcreator.com iamcreator.com is offline
Junior Member
 
Join Date: Feb 2004
Posts: 1
iamcreator.com
Send a message via ICQ to iamcreator.com
Default Cuesheet

--------------------------------------------------------
PERFORMER "Digital Witchcraft"
TITLE "Rhythmaculture"
FILE "Digital Witchcraft - Rhythmaculture (04.12.2003).mp3" MP3
TRACK 01 AUDIO
TITLE "Twirl"
PERFORMER "Digital Witchcraft"
INDEX 01 00:00:00
TRACK 02 AUDIO
TITLE "Brindavan (Ambient Mix)"
PERFORMER "Digital Witchcraft"
INDEX 01 08:52:65
TRACK 03 AUDIO
TITLE "Brindavan"
PERFORMER "Digital Witchcraft"
INDEX 01 13:44:48
TRACK 04 AUDIO
TITLE "Strange Dimensions"
PERFORMER "Jiva"
INDEX 01 24:22:07
TRACK 05 AUDIO
TITLE "Virus"
PERFORMER "16b"
INDEX 01 32:48:78
TRACK 06 AUDIO
TITLE "Brindavan (Grayarea's Purging The Inventory Remix)"
PERFORMER "Digital Witchcraft"
INDEX 01 39:35:43
TRACK 07 AUDIO
TITLE "Crayons"
PERFORMER "Starkid"
INDEX 01 44:26:80
--------------------------------------------------------

Reply With Quote
  #6  
Old 02-18-2004, 10:33 PM
Anonymous Anonymous is offline
Senior Member
 
Join Date: Feb 2003
Posts: 255
Anonymous
Default

Thank you for the cue. Ive already been able to download the set
Reply With Quote
  #7  
Old 02-26-2004, 03:29 PM
Anonymous Anonymous is offline
Senior Member
 
Join Date: Feb 2003
Posts: 255
Anonymous
Default -

Wonderful mix. Very nice work!
Reply With Quote
  #8  
Old 02-27-2004, 04:37 PM
Anonymous Anonymous is offline
Senior Member
 
Join Date: Feb 2003
Posts: 255
Anonymous
Default

Rhythmaculture(04-12-03) Part 1_Marcus Andrew (Digital Witchcraft)
01................................................ ................Twirl
02....Digital Witchcraft...........................Brindavan (Ambient Mix)
03....Digital Witchcraft...........................Brindavan
04....Jiva........................................ ..............Strange Dimensions
05....16b......................................... .............Virus
06....Digital Witchcraft...........................Brindavan (Grayarea's Purging The Inventory Remix)
07....Starkid..................................... .........Crayons


Andy
Rhythmaculture(04-12-03)%20Part%202_Steve%20James%20(Digital%20Witchcra ft)

O my god

Reply With Quote
  #9  
Old 02-27-2004, 04:39 PM
Anonymous Anonymous is offline
Senior Member
 
Join Date: Feb 2003
Posts: 255
Anonymous
Default from Moscow

Quote:
Originally Posted by Anonymous
Rhythmaculture(04-12-03) Part 1_Marcus Andrew (Digital Witchcraft)
01................................................ ................Twirl
02....Digital Witchcraft...........................Brindavan (Ambient Mix)
03....Digital Witchcraft...........................Brindavan
04....Jiva........................................ ..............Strange Dimensions
05....16b......................................... .............Virus
06....Digital Witchcraft...........................Brindavan (Grayarea's Purging The Inventory Remix)
07....Starkid..................................... .........Crayons


Andy
Rhythmaculture(04-12-03) Part 2_Steve James (Digital Witchcraft)

O my god

Reply With Quote
  #10  
Old 02-27-2004, 04:42 PM
andy's Avatar
andy andy is offline
Site Admin
 
Join Date: Feb 2003
Location: Pittsburgh, PA
Posts: 1,269
andy has disabled reputation
Default

Eh...what?
Reply With Quote
Reply


Thread Tools
Display Modes

Posting Rules
You may not post new threads
You may not post replies
You may not post attachments
You may not edit your posts

vB code is On
Smilies are On
[IMG] code is On
HTML code is Off
Forum Jump


All times are GMT. The time now is 06:12 AM.


Powered by vBulletin® Version 3.6.7
Copyright ©2000 - 2017, Jelsoft Enterprises Ltd.