Home :: Artists :: About :: FAQ :: Forums :: Links :: Shop :: Contact
  #1  
Old 02-22-2004, 11:26 PM
andy's Avatar
andy andy is offline
Site Admin
 
Join Date: Feb 2003
Location: Pittsburgh, PA
Posts: 1,269
andy has disabled reputation
Default Oslo Nights (2004-02-14)

For more info about this set, click here.
Reply With Quote
  #2  
Old 02-23-2004, 11:06 AM
Anonymous Anonymous is offline
Senior Member
 
Join Date: Feb 2003
Posts: 255
Anonymous
Default Cue

PERFORMER "Various Artists"
TITLE "Digital Witchcraft - Oslo Nights (14 Feb 2004)"
FILE "Digital Witchcraft - Oslo Nights (2004-02-14).mp3" MP3
TRACK 01 AUDIO
PERFORMER "Marcus Andrew "
TITLE "Mushrooms at the Airport"
INDEX 01 0:00:00
TRACK 02 AUDIO
PERFORMER "Telepopmusik"
TITLE "Love Can Damage Your Health (Laid Mix)"
INDEX 01 01:46:70
TRACK 03 AUDIO
PERFORMER "Jiva"
TITLE "Untitled"
INDEX 01 08:19:39
TRACK 04 AUDIO
PERFORMER "Echomen"
TITLE "Thru To You (Nova Scotia Mix)"
INDEX 01 15:37:55
TRACK 05 AUDIO
PERFORMER "Amiel"
TITLE "Obsession (Infusion Remix)"
INDEX 01 22:18:59
TRACK 06 AUDIO
PERFORMER "Habersham"
TITLE "Body Phunk (Christian J. remix)"
INDEX 01 29:38:62
TRACK 07 AUDIO
PERFORMER "Infusion"
TITLE "Dead Souls"
INDEX 01 35:05:48
TRACK 08 AUDIO
PERFORMER "The Operators"
TITLE "Fuhrball"
INDEX 01 40:39:69
TRACK 09 AUDIO
PERFORMER "Habersham & Numinous"
TITLE "Leaving Tifton (Digital Witchcraft's Miles From Melbourne Mix)"
INDEX 01 48:39:69
TRACK 10 AUDIO
PERFORMER "Jono Fernandez"
TITLE "Deliver Me (Digital Witchcraft's East Coast Mix)"
INDEX 01 56:31:00
Reply With Quote
  #3  
Old 02-23-2004, 01:05 PM
andy's Avatar
andy andy is offline
Site Admin
 
Join Date: Feb 2003
Location: Pittsburgh, PA
Posts: 1,269
andy has disabled reputation
Default

Thanks!
Reply With Quote
  #4  
Old 02-25-2004, 08:37 PM
Anonymous Anonymous is offline
Senior Member
 
Join Date: Feb 2003
Posts: 255
Anonymous
Default

the jiva track is titled xxxxxxxx

Jiva would like to keep this track untitled for now... -Andy
Reply With Quote
  #5  
Old 02-27-2004, 03:36 PM
Anonymous Anonymous is offline
Senior Member
 
Join Date: Feb 2003
Posts: 255
Anonymous
Default Great Set!

Thanks for posting this set to the board. I listened to it on a high end Sony system with powerful subs and it is fantastic. The second half of the set kept me glued to my couch and smiling. Please keep posting these sets and Thanks again.
Reply With Quote
  #6  
Old 02-28-2004, 06:55 AM
Anonymous Anonymous is offline
Senior Member
 
Join Date: Feb 2003
Posts: 255
Anonymous
Default

errr.. sultan himself already revealed the names for the upcoming jiva tracks he did with ned... you can read it in this interview:

http://www.progressive-sounds.com/ar...-interview.asp

anyway, thanks for the DW sets. i really can't stop listening to them..each and every one of them is incredible.
Reply With Quote
  #7  
Old 03-03-2004, 08:12 AM
Anonymous Anonymous is offline
Senior Member
 
Join Date: Feb 2003
Posts: 255
Anonymous
Default

anyone in Miami during the conference can catch digital witchcraft at proton radio's party on the 10th: http://www.protonradio.com
Reply With Quote
  #8  
Old 03-06-2004, 03:12 AM
Anonymous Anonymous is offline
Senior Member
 
Join Date: Feb 2003
Posts: 255
Anonymous
Default

I'll be there for sure.
Reply With Quote
  #9  
Old 03-07-2004, 09:34 PM
Anonymous Anonymous is offline
Senior Member
 
Join Date: Feb 2003
Posts: 255
Anonymous
Default

awesome set!
Reply With Quote
  #10  
Old 03-10-2004, 07:04 PM
puashey's Avatar
puashey puashey is offline
Junior Member
 
Join Date: Mar 2004
Posts: 4
puashey
Default

where i can download more mixez of DW ?
Reply With Quote
Reply


Thread Tools
Display Modes

Posting Rules
You may not post new threads
You may not post replies
You may not post attachments
You may not edit your posts

vB code is On
Smilies are On
[IMG] code is On
HTML code is Off
Forum Jump


All times are GMT. The time now is 06:10 AM.


Powered by vBulletin® Version 3.6.7
Copyright ©2000 - 2017, Jelsoft Enterprises Ltd.