Home :: Artists :: About :: FAQ :: Forums :: Links :: Shop :: Contact
Home
Artists
  Alex Hall
  Andrew Kelly
  Benz & MD
  Burufunk
  Deepsky
  Digital Witchcraft
  Grayarea
  Hybrid
  James Warren
  Jason Dunne
  KiloWatts
  Micah
  Nick Lewis
  Noel Sanger
  NuBreed
  Shiloh
  Stefan Weise
  Trafik
  V-Sag
  Way Out West
Subscriptions
Mailing Lists
About
FAQ
Forums
Links
Shop
Pictures
Contact

Search

Get Notified
Enter your email and we'll notify you when new sets are added!


Subscribers,
log in now.

More info...

Hybridized on Twitter hybridized.org XML RSS Feeds Hybridized RSS

Best viewed with
Get Firefox!
Artists > James Warren
James Warren - Visceral 034

Date: 2013-10-27
Venue: Visceral, Proton Radio
Source: Encoded by James
Info:
REM DATE "2013-10-27"
PERFORMER "James Warren"
TITLE "Visceral 034 (2013-10-27)"
FILE "James Warren - Visceral 034 (2013-10-27).mp3" MP3
  TRACK 01 AUDIO
    PERFORMER "Dibby Dougherty & David Young"
    TITLE "Why Do You Find It So Hard To Believe (Andreas Brunner Remix)"
    INDEX 01 00:00:00
  TRACK 02 AUDIO
    PERFORMER "Andrew McDonnell"
    TITLE "Patience To Envy"
    INDEX 01 06:21:33
  TRACK 03 AUDIO
    PERFORMER "Kobana"
    TITLE "Sighted"
    INDEX 01 14:36:12
  TRACK 04 AUDIO
    PERFORMER "Rodrigo Mateo"
    TITLE "Distant Epochs (Alessandro Diga)"
    INDEX 01 19:44:21
  TRACK 05 AUDIO
    PERFORMER "Jonatan Ramonda"
    TITLE "Long Way To Sky (Jelly For The Babies Remix)"
    INDEX 01 25:02:44
  TRACK 06 AUDIO
    PERFORMER "Paul Davis aka Circulation"
    TITLE "MFM (Hernan Serrao Remix)"
    INDEX 01 30:47:53
  TRACK 07 AUDIO
    PERFORMER "Dousk"
    TITLE "Look Good Tonight (Embliss Remix)"
    INDEX 01 35:32:49
  TRACK 08 AUDIO
    PERFORMER "Faskil"
    TITLE "Change (LoQuai Remix)"
    INDEX 01 41:22:39
  TRACK 09 AUDIO
    PERFORMER "Ad Brown & Andrew Benson"
    TITLE "Nothing Is Impossible (Biologik Remix)"
    INDEX 01 47:58:10
  TRACK 10 AUDIO
    PERFORMER "Denis Laurent"
    TITLE "Haze"
    INDEX 01 53:54:28
  TRACK 11 AUDIO
    PERFORMER "Sapiens"
    TITLE "Fuzzy Driver"
    INDEX 01 58:36:59
  TRACK 12 AUDIO
    PERFORMER "Sonic Union & Kobana"
    TITLE "Maelstrom"
    INDEX 01 65:42:06
  TRACK 13 AUDIO
    PERFORMER "Dan & Sam"
    TITLE "An Interesting Dream (eleven.five Remix)"
    INDEX 01 72:29:68
  TRACK 14 AUDIO
    PERFORMER "LTN"
    TITLE "A Path To Nowhere (Jerome Isma-Ae Remix)"
    INDEX 01 79:06:21
  TRACK 15 AUDIO
    PERFORMER "Robert Moon"
    TITLE "Caelum"
    INDEX 01 83:21:57
  TRACK 16 AUDIO
    PERFORMER "Evave"
    TITLE "Break My Past"
    INDEX 01 89:03:00
  TRACK 17 AUDIO
    PERFORMER "Morttagua"
    TITLE "Delties"
    INDEX 01 94:54:22
  TRACK 18 AUDIO
    PERFORMER "Withakay"
    TITLE "Square Peg Round Hole (Dale Middleton Remix)"
    INDEX 01 101:15:18
  TRACK 19 AUDIO
    PERFORMER "Gvozdini"
    TITLE "Mermaid Calling"
    INDEX 01 107:19:41
  TRACK 20 AUDIO
    PERFORMER "Puremusic"
    TITLE "Sunny Kiss (Rod V Remix)"
    INDEX 01 114:12:31
Download this cue sheet

This area is a Wiki which means anyone may edit the cue sheet for this file. Thanks for contributing! All activity is logged so vandalizing the site serves no purpose.

When modifying cue sheets, please adhere to the cue sheet standard.

Revision history


Your username:
Comment about your changes:
Image verification:


Latest Posts
View latest post 2017 album Release schedule (155 Replies) - face
View latest post Alfoa - Timeless EP [Progressive Breaks] (0 Replies) - morphosisrecords
View latest post 2018 album Release schedule (6 Replies) - Conjure
View latest post :: DEEP HOUSE :: The Clone Dj - Deep Is My House #DT024 (0 Replies) - Downtech
View latest post General Hybrid Discussion (Was Hybrid Album Update) (1363 Replies) - Rathma
View latest post Attic Showcase, Live at Big Fun (24th September, 2017) (0 Replies) - brendanClay
View latest post Wunderk1nd - Sunstroke 2017 (0 Replies) - kindergarten
View latest post MPL - Ruhnsong22-Sound Design (2013-04-06) (18 Replies) - maxtek
View latest post Mike Nixon @ The Old Abbey Tap House (0 Replies) - PosterBoy
View latest post GOGO 070: Sir LSG feat. Carla Prather – Let It Be – out now (0 Replies) - GOGO
View latest post Brendan Clay - Live at S*A*S*H (23rd July, 2017) (0 Replies) - brendanClay
View latest post Captivating Content July 2017 (0 Replies) - PosterBoy
View latest post Wunderk1nd - A Tribute To ... James Holden (0 Replies) - kindergarten
View latest post Brendan Clay - Live at Foxlife (10th June, 2017) (0 Replies) - brendanClay
View latest post Brendan Clay & Andrew Fazzolari - Live at S*A*S*H, Sydney (7th May, 2017) (0 Replies) - brendanClay

Merchandise
hybridized.org Merchandise!
Get cool hybridized.org shirts, hoodies, hats, and more!

Powered by Catalyst Perl Web Framework

hybridized.org is © 2003-2006 by Andy Grundman.
All music is copyrighted by their respective artists. We believe all sets may be publicly distributed, however if you'd like your set removed, please contact us.
Theme by aallixSilver © 2002 aallix.com. All rights reserved. Logo thanks to Martin Wharton.
Privacy Policy | Site Admin