Home :: Artists :: About :: FAQ :: Forums :: Links :: Shop :: Contact
Home
Artists
  Alex Hall
  Andrew Kelly
  Benz & MD
  Burufunk
  Deepsky
  Digital Witchcraft
  Grayarea
  Hybrid
  James Warren
  Jason Dunne
  KiloWatts
  Micah
  Nick Lewis
  Noel Sanger
  NuBreed
  Shiloh
  Stefan Weise
  Trafik
  V-Sag
  Way Out West
Subscriptions
Mailing Lists
About
FAQ
Forums
Links
Shop
Pictures
Contact

Search

Get Notified
Enter your email and we'll notify you when new sets are added!


Subscribers,
log in now.

More info...

Hybridized on Twitter hybridized.org XML RSS Feeds Hybridized RSS

Best viewed with
Get Firefox!
Artists > Way Out West
Jody Wisternoff - September 2014 Intensified

Date: 2014-09-01
Venue: Intensified, friskyRadio
Source: Encoded by Jody
Info:
REM DATE "2014-09-01"
REM GENRE "Deep House"
PERFORMER "Jody Wisternoff"
TITLE "Intensified (2014-09-01)"
FILE "Jody Wisternoff - September 2014 Intensified (2014-09-01).mp3" MP3
  TRACK 01 AUDIO
    PERFORMER "Danalog"
    TITLE "Click, Search (Jody Wisternoff Remix)"
    INDEX 01 00:00:00
  TRACK 02 AUDIO
    PERFORMER "Moby feat. Skylar Grey"
    TITLE "The Last Day (Chymera Remix)"
    INDEX 01 06:40:37
  TRACK 03 AUDIO
    PERFORMER "Roberto Rodriguez"
    TITLE "Steal My Heart"
    INDEX 01 15:27:72
  TRACK 04 AUDIO
    PERFORMER "Clout Boat"
    TITLE "Hallow (Ewan Pearson Remix)"
    INDEX 01 19:48:55
  TRACK 05 AUDIO
    PERFORMER "Martin Roth"
    TITLE "Maya"
    INDEX 01 25:43:65
  TRACK 06 AUDIO
    PERFORMER "Choir Of Young Believers"
    TITLE "Hollow Talk (Jody Wisternoff, Lane 8 & James Grant Remix)"
    INDEX 01 30:01:48
  TRACK 07 AUDIO
    PERFORMER "Stimming"
    TITLE "Der Schmelz (David August Reversion)"
    INDEX 01 38:16:63
  TRACK 08 AUDIO
    PERFORMER "Christian Löffler feat. Gry"
    TITLE "All Comes (Mind Against Remix)"
    INDEX 01 44:37:26
  TRACK 09 AUDIO
    PERFORMER "Drew Hill"
    TITLE "Talk To You (Groove Armada Remix)"
    INDEX 01 51:20:15
  TRACK 10 AUDIO
    PERFORMER "Missing"
    TITLE "Last Orders At The Frog & Nightgown"
    INDEX 01 57:52:55
  TRACK 11 AUDIO
    PERFORMER "Danism feat. Rae"
    TITLE "Sirens"
    INDEX 01 60:00:39
  TRACK 12 AUDIO
    PERFORMER "Grum"
    TITLE "Autumn (King Unique Remix)"
    INDEX 01 63:08:71
  TRACK 13 AUDIO
    PERFORMER "WhoMadeWho"
    TITLE "Heads Above (Maceo Plex Remix)"
    INDEX 01 68:21:24
  TRACK 14 AUDIO
    PERFORMER "NASA Recordings"
    TITLE "Voice Of Earth"
    INDEX 01 75:08:73
Download this cue sheet

This area is a Wiki which means anyone may edit the cue sheet for this file. Thanks for contributing! All activity is logged so vandalizing the site serves no purpose.

When modifying cue sheets, please adhere to the cue sheet standard.

Revision history


Your username:
Comment about your changes:
Image verification:


Latest Posts
View latest post Jody Wisternoff - Sunset Set from Groovecruise LA (2017-10-06) (8 Replies) - vinnie97
View latest post 2017 album Release schedule (163 Replies) - Conjure
View latest post Chris Healings - BFLF at Beautiful Days 2016 DJ set (3 Replies) - vinnie97
View latest post Killahurtz Kiss for the Dying Hybrid Echoplex mix (3 Replies) - c-Row
View latest post Alfoa - Timeless EP [Progressive Breaks] (0 Replies) - morphosisrecords
View latest post 2018 album Release schedule (6 Replies) - Conjure
View latest post :: DEEP HOUSE :: The Clone Dj - Deep Is My House #DT024 (0 Replies) - Downtech
View latest post General Hybrid Discussion (Was Hybrid Album Update) (1363 Replies) - Rathma
View latest post Attic Showcase, Live at Big Fun (24th September, 2017) (0 Replies) - brendanClay
View latest post Wunderk1nd - Sunstroke 2017 (0 Replies) - kindergarten
View latest post MPL - Ruhnsong22-Sound Design (2013-04-06) (18 Replies) - maxtek
View latest post Mike Nixon @ The Old Abbey Tap House (0 Replies) - PosterBoy
View latest post GOGO 070: Sir LSG feat. Carla Prather – Let It Be – out now (0 Replies) - GOGO
View latest post Brendan Clay - Live at S*A*S*H (23rd July, 2017) (0 Replies) - brendanClay
View latest post Captivating Content July 2017 (0 Replies) - PosterBoy

Merchandise
hybridized.org Merchandise!
Get cool hybridized.org shirts, hoodies, hats, and more!

Powered by Catalyst Perl Web Framework

hybridized.org is © 2003-2006 by Andy Grundman.
All music is copyrighted by their respective artists. We believe all sets may be publicly distributed, however if you'd like your set removed, please contact us.
Theme by aallixSilver © 2002 aallix.com. All rights reserved. Logo thanks to Martin Wharton.
Privacy Policy | Site Admin