Home :: Artists :: About :: FAQ :: Forums :: Links :: Shop :: Contact
Home
Artists
  Alex Hall
  Andrew Kelly
  Benz & MD
  Burufunk
  Deepsky
  Digital Witchcraft
  Grayarea
  Hybrid
  James Warren
  Jason Dunne
  KiloWatts
  Micah
  Nick Lewis
  Noel Sanger
  NuBreed
  Shiloh
  Stefan Weise
  Trafik
  V-Sag
  Way Out West
Subscriptions
Mailing Lists
About
FAQ
Forums
Links
Shop
Pictures
Contact

Search

Get Notified
Enter your email and we'll notify you when new sets are added!


Subscribers,
log in now.

More info...

Hybridized on Twitter hybridized.org XML RSS Feeds Hybridized RSS

Best viewed with
Get Firefox!
Artists > Way Out West
Jody Wisternoff - August 2014 Intensified

Date: 2014-08-13
Venue: Intensified, friskyRadio
Source: Encoded by Jody
Info:
dqlREM DATE "2014-08-13"
REM GENRE "House"
PERFORMER "Jody Wisternoff"
TITLE "Intensified (2014-08-13)"
FILE "Jody Wisternoff - August 2014 Intensified (2014-08-13).mp3" MP3
  TRACK 01 AUDIO
    PERFORMER "Herbert"
    TITLE "One Two Three"
    INDEX 01 00:00:00
  TRACK 02 AUDIO
    PERFORMER "Sohn"
    TITLE "Lights"
    INDEX 01 05:44:47
  TRACK 03 AUDIO
    PERFORMER "Kemback"
    TITLE "Mistake"
    INDEX 01 10:00:55
  TRACK 04 AUDIO
    PERFORMER "Vagrant vs. Bizarre Inc"
    TITLE "Get Up"
    INDEX 01 17:59:54
  TRACK 05 AUDIO
    PERFORMER "Kraak & Smaak"
    TITLE "Just Wanna Be Loved (Art Of Tones Remix)"
    INDEX 01 21:39:01
  TRACK 06 AUDIO
    PERFORMER "16 Bit Lolitas"
    TITLE "Deep In My Soul"
    INDEX 01 27:22:10
  TRACK 07 AUDIO
    PERFORMER "Austra"
    TITLE "Home (Arandel Remix)"
    INDEX 01 34:12:29
  TRACK 08 AUDIO
    PERFORMER "Jori Hulkkonen"
    TITLE "Calypso"
    INDEX 01 40:11:64
  TRACK 09 AUDIO
    PERFORMER "Liz Cirelli & Minski"
    TITLE "Linski Disco"
    INDEX 01 46:41:69
  TRACK 10 AUDIO
    PERFORMER "Bakradze"
    TITLE "Kiss Me Again"
    INDEX 01 52:11:30
  TRACK 11 AUDIO
    PERFORMER "Pedestrian"
    TITLE "Drop Bear"
    INDEX 01 55:19:46
  TRACK 12 AUDIO
    PERFORMER "South Soul Project"
    TITLE "Dark I Feel"
    INDEX 01 57:51:66
  TRACK 13 AUDIO
    PERFORMER "Robert Babicz"
    TITLE "Trianges"
    INDEX 01 63:31:59
  TRACK 14 AUDIO
    PERFORMER "Robert Babicz"
    TITLE "One Day We All Will Be Happy"
    INDEX 01 67:37:57
Download this cue sheet

This area is a Wiki which means anyone may edit the cue sheet for this file. Thanks for contributing! All activity is logged so vandalizing the site serves no purpose.

When modifying cue sheets, please adhere to the cue sheet standard.

Revision history


Your username:
Comment about your changes:
Image verification:


Latest Posts
View latest post Brendan Clay - Live at Apollo Arcade, Vinyl Only (11th March, 2017) (0 Replies) - brendanClay
View latest post WOW in Denver 3/25/2017 (5 Replies) - vinnie97
View latest post Frank Waanders & Maglev - Trazzard [OUT NOW] (0 Replies) - KrisA
View latest post Element Six - Together [OUT NOW] (0 Replies) - KrisA
View latest post 2017 album Release schedule (51 Replies) - Conjure
View latest post RUNAGROUND – Can’t Afford It [OUT NOW] (0 Replies) - KrisA
View latest post Moving to mixcloud (3 Replies) - d4yw41k3r
View latest post Shiloh - March 2007 Floppy Discs (2007-03-01) (15 Replies) - nuraH
View latest post 8TracK - New Side Project (Rick Tedesco & Mariion Christiian (0 Replies) - Rick Tedesco
View latest post Vanrip - Find Your Love [OUT TOMORROW] (0 Replies) - KrisA
View latest post Alae Khaldi - Voyage [OUT TOMORROW] (0 Replies) - KrisA
View latest post No Way Back feat. Sophia Black - Minute [OUT NOW] (0 Replies) - KrisA
View latest post Axis - Echoes / Over You [OUT NOW] (0 Replies) - KrisA
View latest post Searching for a tune - Influenza ft Misfilter - Want It All (2 Replies) - chalooby
View latest post Surreal's official 'Awesome tunes' thread (223 Replies) - SurrealBreaks

Today on Proton
[1 PM EST]VS with SoundSystem

Merchandise
hybridized.org Merchandise!
Get cool hybridized.org shirts, hoodies, hats, and more!

Powered by Catalyst Perl Web Framework

hybridized.org is © 2003-2006 by Andy Grundman.
All music is copyrighted by their respective artists. We believe all sets may be publicly distributed, however if you'd like your set removed, please contact us.
Theme by aallixSilver © 2002 aallix.com. All rights reserved. Logo thanks to Martin Wharton.
Privacy Policy | Site Admin