Home :: Artists :: About :: FAQ :: Forums :: Links :: Shop :: Contact
Home
Artists
  Alex Hall
  Andrew Kelly
  Benz & MD
  Burufunk
  Deepsky
  Digital Witchcraft
  Grayarea
  Hybrid
  James Warren
  Jason Dunne
  KiloWatts
  Micah
  Nick Lewis
  Noel Sanger
  NuBreed
  Shiloh
  Stefan Weise
  Trafik
  V-Sag
  Way Out West
Subscriptions
Mailing Lists
About
FAQ
Forums
Links
Shop
Pictures
Contact

Search

Get Notified
Enter your email and we'll notify you when new sets are added!


Subscribers,
log in now.

More info...

Hybridized on Twitter hybridized.org XML RSS Feeds Hybridized RSS

Best viewed with
Get Firefox!
Artists > Way Out West
Nick Warren - Delta Sessions

Date: 2014-07-16
Venue: Delta FM
Source: Encoded by Nick
Info:
REM DATE "2014-07-16"
REM GENRE "Progressive House"
PERFORMER "Nick Warren"
TITLE "Delta Sessions (2014-07-16)"
FILE "Nick Warren - Delta Sessions (2014-07-16).mp3" MP3
  TRACK 01 AUDIO
    TITLE "Alta"
    PERFORMER "Nick Warren"
    INDEX 01 00:00:00
  TRACK 02 AUDIO
    TITLE "Vabene"
    PERFORMER "All Is Well"
    INDEX 01 06:03:64
  TRACK 03 AUDIO
    TITLE "Fire It Out (Tiefschwarz Extended Mix)"
    PERFORMER "Tiefschwarz feat. Ruede Hagelstein"
    INDEX 01 11:31:15
  TRACK 04 AUDIO
    TITLE "Temple (Dub Mix)"
    PERFORMER "Edu Yattah"
    INDEX 01 20:27:45
  TRACK 05 AUDIO
    TITLE "A Space Walk With Ennio (Alex Niggemann Remix)"
    PERFORMER "Skyboy & Andrea Di Rocco feat. Frank"
    INDEX 01 25:55:60
  TRACK 06 AUDIO
    TITLE "Mocca Sunset"
    PERFORMER "Mike Griego & Stas Drive"
    INDEX 01 31:35:41
  TRACK 07 AUDIO
    TITLE "Teach The Wind"
    PERFORMER "Odd Parents"
    INDEX 01 40:24:59
  TRACK 08 AUDIO
    TITLE "Behind My Life (Michael Mayer Mix)"
    PERFORMER "Kaito"
    INDEX 01 45:13:63
  TRACK 09 AUDIO
    TITLE "Knowing We'll Be Here (KiNK Remix)"
    PERFORMER "Daniel Avery"
    INDEX 01 51:25:24
  TRACK 10 AUDIO
    TITLE "Don't Feed the Fears"
    PERFORMER "JJ Salinas"
    INDEX 01 55:59:30
Download this cue sheet

This area is a Wiki which means anyone may edit the cue sheet for this file. Thanks for contributing! All activity is logged so vandalizing the site serves no purpose.

When modifying cue sheets, please adhere to the cue sheet standard.

Revision history


Your username:
Comment about your changes:
Image verification:


Latest Posts
View latest post Brendan Clay - Live at Apollo Arcade, Vinyl Only (11th March, 2017) (0 Replies) - brendanClay
View latest post WOW in Denver 3/25/2017 (5 Replies) - vinnie97
View latest post Frank Waanders & Maglev - Trazzard [OUT NOW] (0 Replies) - KrisA
View latest post Element Six - Together [OUT NOW] (0 Replies) - KrisA
View latest post 2017 album Release schedule (51 Replies) - Conjure
View latest post RUNAGROUND – Can’t Afford It [OUT NOW] (0 Replies) - KrisA
View latest post Moving to mixcloud (3 Replies) - d4yw41k3r
View latest post Shiloh - March 2007 Floppy Discs (2007-03-01) (15 Replies) - nuraH
View latest post 8TracK - New Side Project (Rick Tedesco & Mariion Christiian (0 Replies) - Rick Tedesco
View latest post Vanrip - Find Your Love [OUT TOMORROW] (0 Replies) - KrisA
View latest post Alae Khaldi - Voyage [OUT TOMORROW] (0 Replies) - KrisA
View latest post No Way Back feat. Sophia Black - Minute [OUT NOW] (0 Replies) - KrisA
View latest post Axis - Echoes / Over You [OUT NOW] (0 Replies) - KrisA
View latest post Searching for a tune - Influenza ft Misfilter - Want It All (2 Replies) - chalooby
View latest post Surreal's official 'Awesome tunes' thread (223 Replies) - SurrealBreaks

Today on Proton
[1 PM EST]VS with SoundSystem

Merchandise
hybridized.org Merchandise!
Get cool hybridized.org shirts, hoodies, hats, and more!

Powered by Catalyst Perl Web Framework

hybridized.org is © 2003-2006 by Andy Grundman.
All music is copyrighted by their respective artists. We believe all sets may be publicly distributed, however if you'd like your set removed, please contact us.
Theme by aallixSilver © 2002 aallix.com. All rights reserved. Logo thanks to Martin Wharton.
Privacy Policy | Site Admin