Home :: Artists :: About :: FAQ :: Forums :: Links :: Shop :: Contact
Home
Artists
  Alex Hall
  Andrew Kelly
  Benz & MD
  Burufunk
  Deepsky
  Digital Witchcraft
  Grayarea
  Hybrid
  James Warren
  Jason Dunne
  KiloWatts
  Micah
  Nick Lewis
  Noel Sanger
  NuBreed
  Shiloh
  Stefan Weise
  Trafik
  V-Sag
  Way Out West
Subscriptions
Mailing Lists
About
FAQ
Forums
Links
Shop
Pictures
Contact

Search

Get Notified
Enter your email and we'll notify you when new sets are added!


Subscribers,
log in now.

More info...

Hybridized on Twitter hybridized.org XML RSS Feeds Hybridized RSS

Best viewed with
Get Firefox!
Artists > Way Out West
Jody Wisternoff - DJ Set at Dolce Vita, Bahia Brazil

Date: 2009-12-31
Venue: Dolce Vita
Source: Encoded by Jody.
Info:
PERFORMER "Jody Wisternoff"
TITLE "Live @ Dolce Vita (Bahia, Brazil) (2009-12-31)"
FILE "Jody Wisternoff - DJ Set at Dolce Vita, Bahia Brazil  (2009-12-31).mp3" MP3
  TRACK 01 AUDIO
    PERFORMER "Empire Of The Sun"
    TITLE "We Are The People (Mario Basanov Remix)"
    INDEX 01 00:00:00
  TRACK 02 AUDIO
    PERFORMER "Simian Mobile Disco"
    TITLE "Cruel Intentions (DJ Pierre Remix)"
    INDEX 01 06:07:61
  TRACK 03 AUDIO
    PERFORMER "Jody Wisternoff"
    TITLE "Lassoo"
    INDEX 01 10:48:40
  TRACK 04 AUDIO
    PERFORMER "Hideo Kobayashi"
    TITLE "Made In Japan"
    INDEX 01 16:47:24
  TRACK 05 AUDIO
    PERFORMER "Rasmus Faber"
    TITLE "Any Way (Rasmus Faber Remix)"
    INDEX 01 23:52:25
  TRACK 06 AUDIO
    PERFORMER "FM Attack"
    TITLE "Yesterday"
    INDEX 01 28:10:17
  TRACK 07 AUDIO
    PERFORMER "The Mojo Filter feat. Jefferson Airplane"
    TITLE "White Rabbit (Fear Of Theydon Remix)"
    INDEX 01 32:12:58
  TRACK 08 AUDIO
    PERFORMER "Random House Project"
    TITLE "The One Forever (Dub 12)"
    INDEX 01 37:38:67
  TRACK 09 AUDIO
    PERFORMER "Still Going"
    TITLE "Spaghetti Circus"
    INDEX 01 42:04:42
  TRACK 10 AUDIO
    PERFORMER "Massive Attack"
    TITLE "Unfinished Sympathy (Kamouflage Loves Fred Remix)"
    INDEX 01 49:10:25
  TRACK 11 AUDIO
    PERFORMER "Milke"
    TITLE "Your Love (Dub Mix)"
    INDEX 01 53:16:40
  TRACK 12 AUDIO
    PERFORMER "Way Out West"
    TITLE "The Gift (2010 Club Mix)"
    INDEX 01 56:48:38
  TRACK 13 AUDIO
    PERFORMER "Gui Boratto"
    TITLE "No Turning Back"
    INDEX 01 63:52:32
  TRACK 14 AUDIO
    PERFORMER "FM Attack"
    TITLE "Mixed Signals"
    INDEX 01 70:41:73
  TRACK 15 AUDIO
    PERFORMER "Damabiah"
    TITLE "Sur Les Genoux De L'Automne"
    INDEX 01 75:14:44
  TRACK 16 AUDIO
    PERFORMER "Rachel Ellektra"
    TITLE "Stella (Rachel's Jamming With Spoons Mix)"
    INDEX 01 80:47:67
  TRACK 17 AUDIO
    PERFORMER "Sharam"
    TITLE "Don't Say A Word (Sharam's Own Mix)"
    INDEX 01 86:21:70
  TRACK 18 AUDIO
    PERFORMER "Sunscreem"
    TITLE "Perfect Motion (Boy's Own Mix)"
    INDEX 01 93:42:22
  TRACK 19 AUDIO
    PERFORMER "Jody Wisternoff"
    TITLE "Welcome To Your Life (Remix)"
    INDEX 01 100:01:72
  TRACK 20 AUDIO
    PERFORMER "Birth Control"
    TITLE "Plastic People (Mark E. Remix)"
    INDEX 01 106:06:11
  TRACK 21 AUDIO
    PERFORMER "Manu Delago"
    TITLE "Hang Drum (Jody Wisternoff Remix)"
    INDEX 01 112:49:74
Download this cue sheet

This area is a Wiki which means anyone may edit the cue sheet for this file. Thanks for contributing! All activity is logged so vandalizing the site serves no purpose.

When modifying cue sheets, please adhere to the cue sheet standard.

Revision history


Your username:
Comment about your changes:
Image verification:


Latest Posts
View latest post General Hybrid Discussion (Was Hybrid Album Update) (1368 Replies) - chalooby
View latest post 2018 album Release schedule (16 Replies) - vinnie97
View latest post 2017 album Release schedule (166 Replies) - vinnie97
View latest post Best album/single/compilation of 2017 (2 Replies) - plut0nash
View latest post BICEP and Helena Hauff - Essential Mix - Please listen! (0 Replies) - plut0nash
View latest post Randy Squalor - Adventures In The Squalorworld (6 Replies) - Randy Squalor
View latest post VA - Minimal Compilation Vol.1 [DT025] (0 Replies) - Downtech
View latest post Jody Wisternoff - Sunset Set from Groovecruise LA (2017-10-06) (8 Replies) - vinnie97
View latest post Chris Healings - BFLF at Beautiful Days 2016 DJ set (3 Replies) - vinnie97
View latest post Killahurtz Kiss for the Dying Hybrid Echoplex mix (3 Replies) - c-Row
View latest post Alfoa - Timeless EP [Progressive Breaks] (0 Replies) - morphosisrecords
View latest post :: DEEP HOUSE :: The Clone Dj - Deep Is My House #DT024 (0 Replies) - Downtech
View latest post Attic Showcase, Live at Big Fun (24th September, 2017) (0 Replies) - brendanClay
View latest post Wunderk1nd - Sunstroke 2017 (0 Replies) - kindergarten
View latest post MPL - Ruhnsong22-Sound Design (2013-04-06) (18 Replies) - maxtek

Merchandise
hybridized.org Merchandise!
Get cool hybridized.org shirts, hoodies, hats, and more!

Powered by Catalyst Perl Web Framework

hybridized.org is © 2003-2006 by Andy Grundman.
All music is copyrighted by their respective artists. We believe all sets may be publicly distributed, however if you'd like your set removed, please contact us.
Theme by aallixSilver © 2002 aallix.com. All rights reserved. Logo thanks to Martin Wharton.
Privacy Policy | Site Admin