Home :: Artists :: About :: FAQ :: Forums :: Links :: Shop :: Contact
Home
Artists
  Alex Hall
  Andrew Kelly
  Benz & MD
  Burufunk
  Deepsky
  Digital Witchcraft
  Grayarea
  Hybrid
  James Warren
  Jason Dunne
  KiloWatts
  Micah
  Nick Lewis
  Noel Sanger
  NuBreed
  Shiloh
  Stefan Weise
  Trafik
  V-Sag
  Way Out West
Subscriptions
Mailing Lists
About
FAQ
Forums
Links
Shop
Pictures
Contact

Search

Get Notified
Enter your email and we'll notify you when new sets are added!


Subscribers,
log in now.

More info...

Hybridized on Twitter hybridized.org XML RSS Feeds Hybridized RSS

Best viewed with
Get Firefox!
Artists > Hybrid
Hybrid - February 2010 DJ Mix

Date: 2010-02-22
Venue: SoundCloud
Source:
Info:
PERFORMER "Hybrid"
TITLE "February 2010 DJ Mix (2010-02-22)"
FILE "Hybrid - February 2010 DJ Mix (2010-02-22).mp3" MP3
  TRACK 01 AUDIO
    TITLE "Paradise Circus (Gui Boratto Remix)"
    PERFORMER "Massive Attack"
    INDEX 01 00:00:00
  TRACK 02 AUDIO
    TITLE "Regret a Minute"
    PERFORMER "Mat Le Star"
    INDEX 01 08:22:30
  TRACK 03 AUDIO
    TITLE "Snakecharma (Lank Remix)"
    PERFORMER "Ricky Ryan"
    INDEX 01 14:52:32
  TRACK 04 AUDIO
    TITLE "Hipnos (Original Mix)"
    PERFORMER "Henry Saiz"
    INDEX 01 20:44:67
  TRACK 05 AUDIO
    TITLE "Sidewinder (Original Mix)"
    PERFORMER "Weekend Heroes"
    INDEX 01 26:59:70
  TRACK 06 AUDIO
    TITLE "Paradigm House (Original Mix)"
    PERFORMER "Maetrik"
    INDEX 01 33:29:68
  TRACK 07 AUDIO
    TITLE "Magnetic North (Lank Airboottrigger 2010 Remix)"
    PERFORMER "Sasha"
    INDEX 01 39:14:73
  TRACK 08 AUDIO
    TITLE "Break My Soul (Hybrid's Kill City Sounds Dub 01)"
    PERFORMER "Hybrid"
    INDEX 01 48:14:71
  TRACK 09 AUDIO
    TITLE "Glitterball (Cagedbaby Remix)"
    PERFORMER "G.e.R.M."
    INDEX 01 53:44:54
Download this cue sheet

This area is a Wiki which means anyone may edit the cue sheet for this file. Thanks for contributing! All activity is logged so vandalizing the site serves no purpose.

When modifying cue sheets, please adhere to the cue sheet standard.

Revision history


Your username:
Comment about your changes:
Image verification:


Latest Posts
View latest post 2017 album Release schedule (148 Replies) - Conjure
View latest post Attic Showcase, Live at Big Fun (24th September, 2017) (0 Replies) - brendanClay
View latest post General Hybrid Discussion (Was Hybrid Album Update) (1362 Replies) - Marksl8r
View latest post Wunderk1nd - Sunstroke 2017 (0 Replies) - kindergarten
View latest post MPL - Ruhnsong22-Sound Design (2013-04-06) (18 Replies) - maxtek
View latest post Mike Nixon @ The Old Abbey Tap House (0 Replies) - PosterBoy
View latest post GOGO 070: Sir LSG feat. Carla Prather – Let It Be – out now (0 Replies) - GOGO
View latest post Brendan Clay - Live at S*A*S*H (23rd July, 2017) (0 Replies) - brendanClay
View latest post Captivating Content July 2017 (0 Replies) - PosterBoy
View latest post Wunderk1nd - A Tribute To ... James Holden (0 Replies) - kindergarten
View latest post Brendan Clay - Live at Foxlife (10th June, 2017) (0 Replies) - brendanClay
View latest post Brendan Clay & Andrew Fazzolari - Live at S*A*S*H, Sydney (7th May, 2017) (0 Replies) - brendanClay
View latest post A Tribute To ... Robert Miles (3 Replies) - brendanClay
View latest post melodic bomby house set (2 Replies) - Mommar
View latest post Looking for podcasts, mix subscriptions, etc.. recommendations (2 Replies) - Conjure

Merchandise
hybridized.org Merchandise!
Get cool hybridized.org shirts, hoodies, hats, and more!

Powered by Catalyst Perl Web Framework

hybridized.org is © 2003-2006 by Andy Grundman.
All music is copyrighted by their respective artists. We believe all sets may be publicly distributed, however if you'd like your set removed, please contact us.
Theme by aallixSilver © 2002 aallix.com. All rights reserved. Logo thanks to Martin Wharton.
Privacy Policy | Site Admin