Home :: Artists :: About :: FAQ :: Forums :: Links :: Shop :: Contact
Home
Artists
  Alex Hall
  Andrew Kelly
  Benz & MD
  Burufunk
  Deepsky
  Digital Witchcraft
  Grayarea
  Hybrid
  James Warren
  Jason Dunne
  KiloWatts
  Micah
  Nick Lewis
  Noel Sanger
  NuBreed
  Shiloh
  Stefan Weise
  Trafik
  V-Sag
  Way Out West
Subscriptions
Mailing Lists
About
FAQ
Forums
Links
Shop
Pictures
Contact

Search

Get Notified
Enter your email and we'll notify you when new sets are added!


Subscribers,
log in now.

More info...

Hybridized on Twitter hybridized.org XML RSS Feeds Hybridized RSS

Best viewed with
Get Firefox!
Artists > Way Out West
Nick Warren - Sound Garden 024 (Psychedelic)

Date: 2014-08-21
Venue: Sound Garden, friskyRadio
Source: Encoded by Nick.
Info:
REM DATE "2014-08-21"
PERFORMER "Nick Warren"
TITLE "Sound Garden 024 (2014-08-21)"
FILE "Nick Warren - Sound Garden 024 (Psychedelic) (2014-08-21).mp3" MP3
  TRACK 01 AUDIO
    TITLE "Cold Nose Story"
    PERFORMER "Sensations' Fix"
    INDEX 01 00:00:00
  TRACK 02 AUDIO
    TITLE "Photonos"
    PERFORMER "Emerald Web"
    INDEX 01 04:07:38
  TRACK 03 AUDIO
    TITLE "Man Out Of A Test Tube"
    PERFORMER "Science Fiction Corporation"
    INDEX 01 13:58:61
  TRACK 04 AUDIO
    TITLE "Nuclear War In Your Brain"
    PERFORMER "Sensations' Fix"
    INDEX 01 15:56:31
  TRACK 05 AUDIO
    TITLE "Alta"
    PERFORMER "Etapp Kyle"
    INDEX 01 20:01:14
  TRACK 06 AUDIO
    TITLE "All Is Lost"
    PERFORMER "Alexander Ebert"
    INDEX 01 23:33:32
  TRACK 07 AUDIO
    TITLE "Yours Is A History Of Violence"
    PERFORMER "Of Norway"
    INDEX 01 26:05:11
  TRACK 08 AUDIO
    TITLE "In Turmoil"
    PERFORMER "Joel Hood"
    INDEX 01 32:50:72
  TRACK 09 AUDIO
    TITLE "Cycles"
    PERFORMER "Wiki & Oneplus feat. Nik"
    INDEX 01 37:35:50
  TRACK 10 AUDIO
    TITLE "Northern Lights"
    PERFORMER "Lux"
    INDEX 01 42:36:69
  TRACK 11 AUDIO
    TITLE "Envelop"
    PERFORMER "Julianna Barwick"
    INDEX 01 47:44:20
  TRACK 12 AUDIO
    TITLE "Opus 66 (Part 1)"
    PERFORMER "Flowers Of Hell"
    INDEX 01 53:02:33
  TRACK 13 AUDIO
    TITLE "Quiet Day"
    PERFORMER "Lusine"
    INDEX 01 57:04:47
  TRACK 14 AUDIO
    TITLE "The Visit (She Was Here)"
    PERFORMER "The Cyrkle"
    INDEX 01 60:09:49
  TRACK 15 AUDIO
    TITLE "Milky Way"
    PERFORMER "Georgy Om"
    INDEX 01 62:23:28
  TRACK 16 AUDIO
    TITLE "While You Were Waiting"
    PERFORMER "Joel Hood"
    INDEX 01 65:46:73
  TRACK 17 AUDIO
    TITLE "This Is Normal"
    PERFORMER "The Soundcarriers"
    INDEX 01 70:22:07
  TRACK 18 AUDIO
    TITLE "I May Be At Fault (Emili Remix)"
    PERFORMER "Billie Mandoki"
    INDEX 01 82:29:55
  TRACK 19 AUDIO
    TITLE "Dead (Usmev Remix)"
    PERFORMER "Maurice Aymard feat. Colorado"
    INDEX 01 88:22:37
  TRACK 20 AUDIO
    TITLE "Paraphrase"
    PERFORMER "Edgar Peng"
    INDEX 01 95:54:41
  TRACK 21 AUDIO
    TITLE "That Day We Threw The Keys Out The Window"
    PERFORMER "Franz Kirmann"
    INDEX 01 102:27:58
  TRACK 22 AUDIO
    TITLE "Mrs Carpenter"
    PERFORMER "Timoka"
    INDEX 01 107:12:30
  TRACK 23 AUDIO
    TITLE "Summate"
    PERFORMER "Olaf Stuut"
    INDEX 01 110:10:26
  TRACK 24 AUDIO
    TITLE "Back To The Sea"
    PERFORMER "Mark Barrott"
    INDEX 01 117:41:38
Download this cue sheet

This area is a Wiki which means anyone may edit the cue sheet for this file. Thanks for contributing! All activity is logged so vandalizing the site serves no purpose.

When modifying cue sheets, please adhere to the cue sheet standard.

Revision history


Your username:
Comment about your changes:
Image verification:


Latest Posts
View latest post General Hybrid Discussion (Was Hybrid Album Update) (1361 Replies) - Conjure
View latest post 2017 album Release schedule (137 Replies) - Conjure
View latest post Wunderk1nd - Sunstroke 2017 (0 Replies) - kindergarten
View latest post MPL - Ruhnsong22-Sound Design (2013-04-06) (18 Replies) - maxtek
View latest post Mike Nixon @ The Old Abbey Tap House (0 Replies) - PosterBoy
View latest post GOGO 070: Sir LSG feat. Carla Prather – Let It Be – out now (0 Replies) - GOGO
View latest post Brendan Clay - Live at S*A*S*H (23rd July, 2017) (0 Replies) - brendanClay
View latest post Captivating Content July 2017 (0 Replies) - PosterBoy
View latest post Wunderk1nd - A Tribute To ... James Holden (0 Replies) - kindergarten
View latest post Brendan Clay - Live at Foxlife (10th June, 2017) (0 Replies) - brendanClay
View latest post Brendan Clay & Andrew Fazzolari - Live at S*A*S*H, Sydney (7th May, 2017) (0 Replies) - brendanClay
View latest post A Tribute To ... Robert Miles (3 Replies) - brendanClay
View latest post melodic bomby house set (2 Replies) - Mommar
View latest post Looking for podcasts, mix subscriptions, etc.. recommendations (2 Replies) - Conjure
View latest post Rodrigo Deem - Ventara [OUT NOW] (0 Replies) - KrisA

Today on Proton
[ONDEMAND]Morphosis with Retroid
[11 AM EST]Elements with Danny Lloyd
[6 PM EST]Global Ambition with Stas Drive
[12 AM EST]Encore with Tim Benjamin
[10 AM EST]Tempo with Dj.Inc. and Christopher Sheehy
[11 AM EST]Audioholics with Mariano Mellino
[6 PM EST]ObSessions with Nuclius
[1 PM EST]Circular Sound Radio with Barry Jamieson
[ONDEMAND]Beat and Path with Beat and Path
[1 PM EST]VS with SoundSystem
[3 PM EST]Submerse with Daniel Glover
[11 PM EST]Galileo with Onirika
[4 PM EST]TriColours with Neptun 505
[4 PM EST]Particles with Jay Epoch
[9 PM EST]The Space Sound with CRYSS

Merchandise
hybridized.org Merchandise!
Get cool hybridized.org shirts, hoodies, hats, and more!

Powered by Catalyst Perl Web Framework

hybridized.org is © 2003-2006 by Andy Grundman.
All music is copyrighted by their respective artists. We believe all sets may be publicly distributed, however if you'd like your set removed, please contact us.
Theme by aallixSilver © 2002 aallix.com. All rights reserved. Logo thanks to Martin Wharton.
Privacy Policy | Site Admin