Home :: Artists :: About :: FAQ :: Forums :: Links :: Shop :: Contact
Home
Artists
  Alex Hall
  Andrew Kelly
  Benz & MD
  Burufunk
  Deepsky
  Digital Witchcraft
  Grayarea
  Hybrid
  James Warren
  Jason Dunne
  KiloWatts
  Micah
  Nick Lewis
  Noel Sanger
  NuBreed
  Shiloh
  Stefan Weise
  Trafik
  V-Sag
  Way Out West
Subscriptions
Mailing Lists
About
FAQ
Forums
Links
Shop
Pictures
Contact

Search

Get Notified
Enter your email and we'll notify you when new sets are added!


Subscribers,
log in now.

More info...

Hybridized on Twitter hybridized.org XML RSS Feeds Hybridized RSS

Best viewed with
Get Firefox!
Artists > James Warren
James Warren - Tempus Fugit

Date: 2015-09-15
Venue: studio
Source: Encoded by James
Info:
REM DATE "2015-09-15"
REM GENRE "Progressive House"
PERFORMER "James Warren"
TITLE "Tempus Fugit (2015-09-15)"
FILE "James Warren - Tempus Fugit (2015-09-15).mp3" MP3
  TRACK 01 AUDIO
    PERFORMER "James Warren"
    TITLE "Acidic"
    INDEX 01 00:00:00
  TRACK 02 AUDIO
    PERFORMER "Stephan Bodzin"
    TITLE "Zulu"
    INDEX 01 02:13:10
  TRACK 03 AUDIO
    PERFORMER "Michael A & Andrea Shu"
    TITLE "Coast (Dustin Nantais Remix)"
    INDEX 01 08:16:40
  TRACK 04 AUDIO
    PERFORMER "Hunter/Game"
    TITLE "Hexagon"
    INDEX 01 14:58:41
  TRACK 05 AUDIO
    PERFORMER "Danny Oliveira"
    TITLE "Saikin Do"
    INDEX 01 19:38:09
  TRACK 06 AUDIO
    PERFORMER "Stephan Hinz & Clint Stewart"
    TITLE "Shimmer"
    INDEX 01 26:11:33
  TRACK 07 AUDIO
    PERFORMER "Henry Saiz"
    TITLE "Sangre Azul"
    INDEX 01 35:09:64
  TRACK 08 AUDIO
    PERFORMER "Kesper"
    TITLE "Re-Entry"
    INDEX 01 42:19:40
  TRACK 09 AUDIO
    PERFORMER "Groove Armada"
    TITLE "Shameless (Chaim Remix)"
    INDEX 01 50:44:42
  TRACK 10 AUDIO
    PERFORMER "SuperSi"
    TITLE "Why Is The Sky (Napalm & d-phrag Cloudy Remix)"
    INDEX 01 56:41:18
  TRACK 11 AUDIO
    PERFORMER "Solee"
    TITLE "Phoenix"
    INDEX 01 62:45:33
  TRACK 12 AUDIO
    PERFORMER "Huminal vs. Plastikman"
    TITLE "Warthogs World vs. Expand (Tale Of Us Remix)"
    INDEX 01 70:57:26
Download this cue sheet

This area is a Wiki which means anyone may edit the cue sheet for this file. Thanks for contributing! All activity is logged so vandalizing the site serves no purpose.

When modifying cue sheets, please adhere to the cue sheet standard.

Revision history


Your username:
Comment about your changes:
Image verification:


Latest Posts
View latest post Brendan Clay - Live at Apollo Arcade, Vinyl Only (11th March, 2017) (0 Replies) - brendanClay
View latest post WOW in Denver 3/25/2017 (5 Replies) - vinnie97
View latest post Frank Waanders & Maglev - Trazzard [OUT NOW] (0 Replies) - KrisA
View latest post Element Six - Together [OUT NOW] (0 Replies) - KrisA
View latest post 2017 album Release schedule (51 Replies) - Conjure
View latest post RUNAGROUND – Can’t Afford It [OUT NOW] (0 Replies) - KrisA
View latest post Moving to mixcloud (3 Replies) - d4yw41k3r
View latest post Shiloh - March 2007 Floppy Discs (2007-03-01) (15 Replies) - nuraH
View latest post 8TracK - New Side Project (Rick Tedesco & Mariion Christiian (0 Replies) - Rick Tedesco
View latest post Vanrip - Find Your Love [OUT TOMORROW] (0 Replies) - KrisA
View latest post Alae Khaldi - Voyage [OUT TOMORROW] (0 Replies) - KrisA
View latest post No Way Back feat. Sophia Black - Minute [OUT NOW] (0 Replies) - KrisA
View latest post Axis - Echoes / Over You [OUT NOW] (0 Replies) - KrisA
View latest post Searching for a tune - Influenza ft Misfilter - Want It All (2 Replies) - chalooby
View latest post Surreal's official 'Awesome tunes' thread (223 Replies) - SurrealBreaks

Today on Proton
[1 PM EST]VS with SoundSystem

Merchandise
hybridized.org Merchandise!
Get cool hybridized.org shirts, hoodies, hats, and more!

Powered by Catalyst Perl Web Framework

hybridized.org is © 2003-2006 by Andy Grundman.
All music is copyrighted by their respective artists. We believe all sets may be publicly distributed, however if you'd like your set removed, please contact us.
Theme by aallixSilver © 2002 aallix.com. All rights reserved. Logo thanks to Martin Wharton.
Privacy Policy | Site Admin